Thursday, 1 May 2014

Jack Jones - Bread Winners [1972]

VS-88044


1972 / RCA / SF 8280
Here's a nice and typical seventies offering - legendary crooner Jack Jones turning his voice to the David Gates and Bread songbook. All bread favourites are here - all remastered-in-loving-not-on-CD glory for you shipwreckers to enjoy!

Apple Lossless & Artwork
Here

1 comment:

Grapher said...

Many Thanks from this AlbuM!

CUE File::
------------------
REM DATE 1972
PERFORMER "Jack Jones"
TITLE "Bread Winners"
FILE "Jack Jones - Bread Winners [Vinyl LP].mp4" WAVE
TRACK 01 AUDIO
TITLE "Make It With You"
INDEX 01 00:00:00
TRACK 02 AUDIO
TITLE "Baby I'm A-Want You"
INDEX 01 02:23:00
TRACK 03 AUDIO
TITLE "Coming Apart"
INDEX 01 04:44:00
TRACK 04 AUDIO
TITLE "If"
INDEX 01 08:17:00
TRACK 05 AUDIO
TITLE "Daughter"
INDEX 01 11:47:00
TRACK 06 AUDIO
TITLE "Games Of Magic"
INDEX 01 15:03:00
TRACK 07 AUDIO
TITLE "Everything I Own"
INDEX 01 17:45:00
TRACK 08 AUDIO
TITLE "Diary"
INDEX 01 20:44:00
TRACK 09 AUDIO
TITLE "It Doesn't Matter To Me"
INDEX 01 24:17:00
TRACK 10 AUDIO
TITLE "Come Again"
INDEX 01 26:53:00
-------------